#TITLE:CANDY love;
#SUBTITLE:;
#ARTIST:Be For U feat. DJ Potatoe;
#TITLETRANSLIT:;
#SUBTITLETRANSLIT:;
#ARTISTTRANSLIT:;
#CREDIT:;
#BANNER:Candy Love-banner.png;
#BACKGROUND:Candy Love-bg.png;
#LYRICSPATH:;
#CDTITLE:;
#MUSIC:Candy Love.mp3;
#MUSICLENGTH:86.439;
#OFFSET:-1.260;
#SAMPLESTART:49.405;
#SAMPLELENGTH:12.000;
#SELECTABLE:YES;
#BPMS:0.000=199.000;
#STOPS:;
#BGCHANGES:;
#FIRSTBEAT:10.500;

#LASTBEAT:276.000;

#SONGFILENAME:Songs/ERICth MIX 2nd Style/Candy Love/candy.sm;

#HASMUSIC:1;

#HASBANNER:1;


//---------------dance-single - MANIAC----------------
#NOTES:
     dance-single:
     MANIAC:
     hard:
     8:
     0.659,0.639,0.451,0.509,0.000,316.000,39.000,44.000,0.000,0.000:



0000
0000
0000
0000
,
0000
0000
0000
0000
,
0000
0000
0000
0000
0000
0100
0010
1000
,
1000
0000
0001
0000
0100
0010
0000
0010
,
0000
0110
0000
1000
0001
0000
0011
0000
,
0000
1000
0100
1000
0200
0000
0310
0020
,
0000
0000
0000
0000
,
0031
1000
0001
1000
0000
1000
1000
0000
,
0001
1000
0001
1000
0000
1000
1000
0000
,
0010
0000
0010
0000
0100
0000
0100
0010
,
0000
0010
0001
0000
2000
0000
3001
0000
,
1000
0000
1000
0000
0100
0000
0100
0010
,
0000
0010
0001
0000
1001
0000
1001
0000
,
2100
0000
0100
0000
0100
0000
0100
3000
,
0100
0000
0010
0001
0000
0001
0000
0002
,
0000
0000
0000
0003
0000
0000
1000
0100
,
1000
0100
0010
0000
0110
0000
0110
0000
,
2000
0000
0001
3000
0001
0000
0100
0001
,
0000
0001
0100
0100
0100
0000
0110
0000
,
1001
1000
0001
1000
0100
0000
0100
1000
,
0100
1000
0100
0010
0010
0000
0000
0000
,
0001
0100
1000
0010
,
0100
0000
1000
0000
0100
0010
0100
0000
,
0010
0100
0010
0000
0010
0000
0010
0000
,
0100
0001
1000
0000
1000
0001
0000
0001
,
2000
0000
3200
0000
0320
0000
0031
1000
,
0000
1000
0002
0000
0103
0000
0110
0000
,
0002
0000
0023
0000
0230
0000
1300
0001
,
0000
0001
2000
0000
3100
0000
1000
0000
,
0001
0100
0001
0010
0002
0000
0000
0000
,
0003
1100
0110
0101
,
0110
0000
1010
0000
1010
0000
0010
0001
,
0000
0001
0011
0000
2000
0000
3020
0000
,
2030
0000
3200
0000
0320
0000
0031
1000
,
0000
1000
0002
0000
0103
0000
0110
0000
,
0002
0000
0023
0000
0230
0000
1300
0001
,
0000
0001
2000
0000
3100
0000
1000
0000
,
0001
0100
0001
0010
0002
0000
0000
0000
,
0003
1100
0110
0101
,
0110
0000
1010
0000
1010
0000
0010
0001
,
0000
0001
0011
0000
2000
0000
3020
0000
,
1030
0000
1000
0000
1000
0100
0010
0100
,
0000
0100
0000
0100
0010
0100
0001
0100
,
1000
0000
1000
0000
1000
0010
1000
0010
,
0100
0010
0100
0001
0000
0000
0000
0000
,
0010
0000
0010
0000
0010
0001
0010
0010
,
0000
0010
0000
0010
0001
1000
0100
1000
,
0100
0000
0100
0000
0100
0010
0100
0010
,
0100
0010
0100
0020
0000
0000
0000
0030
,
2000
0000
3002
0000
0203
0000
0310
0100
,
0000
0100
0010
0000
0220
0000
0330
0000
,
2000
0000
3002
0000
0203
0000
0310
0010
,
0000
0010
0010
0000
0011
0000
0011
0000
,
2100
0000
0000
0100
3100
0000
1100
0000
,
1000
0001
1000
0001
,
1000
0000
0100
0000
0010
0000
0001
0010
,
0000
0010
0100
0000
1000
0000
0100
0000
,
1100
0000
0101
0000
1100
0000
0100
0010
,
0000
0110
0110
0000
0220
0000
0330
0000
,
0002
0000
0023
0000
0032
0000
1003
0100
,
0000
0100
0100
0000
0010
0000
0010
0000
,
0001
1000
0100
1000
0010
1000
0100
0000
,
0110
0000
0010
0001
0010
0001
0010
0000
,
1000
0000
1000
0000
1000
0000
1000
0001
,
0000
0001
1000
0000
1100
0000
0110
0000
,
0001
0010
0001
0010
0001
0010
0001
0000
,
1000
0100
1000
0100
1000
0100
1000
0000
,
1000
0010
0100
0010
0100
1000
0010
0010
,
0020
0000
0000
0000
,
0030
0000
0000
0000;

//---------------dance-single - ANOTHER----------------
#NOTES:
     dance-single:
     ANOTHER:
     medium:
     5:
     0.486,0.551,0.139,0.035,0.000,279.000,12.000,3.000,0.000,0.000:



0000
0000
0000
0000
,
0000
0000
0000
0000
,
0000
0000
0000
0000
,
0010
0000
1000
0000
0001
1000
0000
0100
,
0000
0100
0000
1000
0010
0000
1000
0000
,
0000
0100
0000
0000
1000
0000
0010
0000
,
0100
0010
0100
0000
,
0110
0000
0000
0110
0000
0000
0110
0000
,
0110
0000
0000
0110
0000
0000
0110
0000
,
1000
0001
0010
0100
,
1000
0001
0100
0010
,
1000
0001
0010
0100
,
0010
0001
1000
0001
,
2000
0000
0000
0001
,
0001
0100
0010
0100
,
0010
0000
0000
0000
,
0001
0001
0001
3000
,
0010
0100
0001
1000
,
0100
0010
0001
0100
,
0010
0010
0010
0100
,
0001
0000
1000
0000
0100
1000
0100
0000
,
0010
0100
1000
0001
,
0100
0001
0010
0001
,
0010
0000
0001
0010
0000
0001
0000
0000
,
0001
0000
1000
0100
0000
1000
0010
0000
,
0100
0000
1000
0000
0010
0000
0100
0001
,
0000
0001
1000
0000
0100
0000
0010
0000
,
0001
0000
1000
0000
0010
0000
0100
0010
,
0000
0010
0100
0000
0001
0000
2000
0000
,
0001
0100
0010
0100
,
0001
0010
0100
0001
,
0010
0010
0010
0100
,
0100
0100
0001
3100
,
0001
0000
0010
0000
0001
0000
1000
0010
,
0000
0100
0001
0000
1000
0000
0100
0000
,
0010
0000
0001
0000
0100
0000
0010
0100
,
0000
0100
0001
0000
0001
0000
1000
0000
,
0100
1000
0100
1000
0100
1000
0100
0000
,
0001
0100
0001
0100
0001
0100
0001
0000
,
0010
0000
0001
0000
1000
0000
0010
1000
,
0000
0001
1000
0100
1000
0000
0001
0000
,
0010
0000
0000
1000
0000
0000
0001
0000
,
0000
1000
0000
0100
0000
0000
1000
0000
,
0010
0000
0000
0100
0000
0000
1000
0000
,
0000
0010
0000
0000
0100
0000
1000
0000
,
0010
0000
1000
0100
0000
0000
0100
0000
,
0001
0100
0000
0100
0000
0100
0001
0000
,
0001
0100
1000
0010
,
1000
0100
0000
0100
0000
1000
0100
1000
,
0100
0000
1000
0000
0010
0000
1000
0100
,
0000
0001
1000
0000
0100
0000
0010
0000
,
0001
0000
1000
0000
0010
0000
0100
0001
,
0000
0001
1000
0000
0100
0000
0010
0000
,
0001
0000
1000
0001
1000
0001
1000
0010
,
0100
0001
1000
0100
,
0010
0000
0001
0000
1000
0100
1000
0100
,
0000
0010
0001
0010
0001
0000
1000
0000
,
0001
0000
0100
0000
0010
0000
1000
0001
,
0000
0100
0001
0000
0101
0000
0101
0000
,
0010
0000
1000
0000
0100
0000
0010
0001
,
0000
1000
0010
0100
0001
0000
1000
0000
,
1010
0000
1001
0000
,
2100
0000
0000
0000
,
0010
0000
0010
0000
0010
3000
0001
0010
,
0000
0001
1000
0100
0010
0000
0001
0000
,
1000
0000
0100
1000
0000
0100
1000
0100
,
1000
0000
0100
1000
0000
0100
1000
0100
,
1000
0000
0100
1000
0000
0100
1000
0100
,
1001
0000
0000
0000;

//---------------dance-single - BASIC----------------
#NOTES:
     dance-single:
     BASIC:
     easy:
     3:
     0.355,0.477,0.116,0.023,0.000,203.000,10.000,2.000,0.000,0.000:



0000
0000
0000
0000
,
0000
0000
0000
0000
,
0000
0000
0000
0000
,
0001
0000
0001
0000
,
0010
0100
0010
0000
,
1000
0000
1000
0000
,
0100
0010
0100
0000
,
0001
0001
0001
0001
,
0001
0001
0001
0001
,
0010
0000
0100
0000
,
1000
0010
1000
0100
,
0001
0000
0010
0000
,
0100
0010
0100
0001
,
0100
0000
0000
0010
,
1000
0100
0010
0100
,
0020
0000
0000
0000
,
0000
0000
0000
0031
,
0100
0000
1000
0000
,
0010
0001
0100
0000
,
0100
0000
0010
0000
,
0100
0010
0001
1000
,
0010
0000
0010
0000
,
0100
0000
0100
0000
,
0001
0100
1000
0100
,
0010
0000
0010
0000
,
0010
0010
0001
0000
,
0100
0100
1000
0000
,
0010
0010
0100
0000
,
1000
1000
0001
0000
,
0010
0100
0010
1000
,
0001
0010
0100
0001
,
1000
0010
0100
0001
,
1000
0100
0100
0100
,
0010
0100
0100
0000
,
0001
1000
1000
0000
,
0010
1000
1000
0000
,
0010
0001
0001
0000
,
0001
0100
0010
0100
,
0001
1000
0001
1000
,
0001
1000
0010
0100
,
0001
0010
0001
0100
,
0001
0000
0001
0000
,
0001
0000
0001
0000
,
0001
0000
0001
0000
,
0001
0000
0001
0100
,
1000
0000
1000
0000
,
1000
0000
1000
0000
,
1000
1000
1000
1000
,
1000
1000
1000
0010
,
0100
0010
0001
1000
,
0100
0010
0100
1000
,
0010
1000
1010
1010
,
0011
0011
0100
0010
,
0100
1000
0100
0001
,
1000
0010
0010
0100
,
0001
0100
0010
0010
,
1000
0100
1000
0100
,
1100
0000
0011
0000
,
0110
0000
0110
0110
,
1000
0001
0100
0010
,
0010
0000
0100
0000
,
0001
0100
1000
0010
,
1000
0010
0100
0001
,
0100
0000
0100
0000
,
0010
0100
0100
0010
,
0100
0000
0100
0000
,
0100
0010
0100
0000
,
0100
0010
0100
0010
,
2001
0000
0000
3000;
